» » Kadri Gopalnath - December Season 2002: Kutcheri

Kadri Gopalnath - December Season 2002: Kutcheri album download

Kadri Gopalnath/December Season 2002 Vol 2. December Season 2002 Vol 2. Kadri Gopalnath.

PLAY ALL. December Season 2002. Released by Virgin Records (India) Pvt Ltd. Jan 1970 1 Tracks. play all.

Bitrate (quality): 192256320.

October 2010, 18:17 Kadri Gopalnath, December Season 2002 - D1 Used drive : TOSHIBA DVD-ROM SD-R2512 Adapter: 1 ID: 0 Read mode : Secure Utilize accurate stream : Yes Defeat audio cache : Yes Make use of C2 pointers : No Read offset correction : 116 Overread into Lead-In and Lead-Out : No Fill up missing offset samples with silence : Yes Delete leading. wav" WAVE TRACK 01 AUDIO INDEX 01 00:00:00 TRACK 02 AUDIO INDEX 00 19:08:20 FILE "02 - kamakshi. wav" WAVE INDEX 01 00:00:00 TRACK 03 AUDIO INDEX 00 13:25: 27 FILE "03 - kamalaptakula. wav" WAVE INDEX 01 00:00:00.

December Season 2002 - sami ninne kori, ennaluurake, jaya jaya padmanabha and 9 more tracks from this album here for free. More albums by this artist. From: Sanjay Subrahmanyan. December Season 2006. Kutcheri, Experience The Live Performance. Gems Of Carnatic Music - Live In Concert 2005 – Sanjay Subrahmanyan. Kutcheri Live at Gokhale Hall.

More Kadri Gopalnath. Listen to December Season 2002 now. Listen to December Season 2002 in full in the this site app. Play on this site.

Songs from December Season 2002 by Sanjay Subrahmanyan. Free download and listen December Season 2002. December Season 2006 - Sanjay Subrahmanyan. Kutcheri, Experience The Live Performance - Sanjay Subrahmanyan. Gems Of Carnatic Music - Live In Concert 2005 – Sanjay Subrahmanyan - Sanjay Subrahmanyan. Kutcheri Live at Gokhale Hall - Sanjay Subrahmanyan.

December Season 2002. Release group by Kadri Gopalnath. IN. Charsur Digital Workstation.

Kadri Gopalnath (born 11 December 1949) is an Indian saxophonist and one of the pioneers of Carnatic music on the saxophone. Kadri Gopalnath was born on December 11, 1949 in Mangalore to Thaniappa and Gangamma. He acquired a taste for music from his father Thaniappa, a nadaswaram vidwan

Track List - Disc 1

Title/Composer Performer Time
1 Gnanavinayakane - Gambhlra Nattai - Adi Papanasam Sivan Kadri Gopalnath 19:10
2 Kamakshi (Svarajati) - Bhairavi - Mishra Capu Kadri Gopalnath 13:27
3 Kamalaapta Kula - Brndavana Saranga - Adi Tyagaraja Kadri Gopalnath 28:36

Track List - Disc 2

Title/Composer Performer Time
1 Gnanamosagarada - Purvikalyani - Rupakam Tyagaraja Kadri Gopalnath 6:37
2 Ragam Tanam Pallavi - Kalyana Vasantam - Adi: Dakshinamurtaye ... Kadri Gopalnath Kadri Gopalnath 44:50

Track List - Disc 3

Title/Composer Performer Time
1 Ragam Tanam Pallavi - Kalyana Vasantam - Adi: Dakshinamurtaye ... Kadri Gopalnath Kadri Gopalnath 19:06
2 Cinnanjiru Killiye - Ragamalika - Adi Kadri Gopalnath 3:46
3 Krshna NL Begane - Yamuna Kalyani - Mishra Capu Kadri Gopalnath 7:28
4 Kurai Ondrum Illai - Ragamalika - Adi Kadri Gopalnath 4:27
5 Brahmam Okkate Para - Bouli - Adi Kadri Gopalnath 2:49
6 Guruvayur Appanen Appan - Rltigaula - Adi Kadri Gopalnath 5:47
7 Magudi Traditional Kadri Gopalnath 4:30
8 Venkatacala Nilayam - Sindhu Bhairavi - Adi Purandara Dasa Kadri Gopalnath 3:04
9 Bhagyada Iakshmi Baramma - Madhyamavati - Adi Purandara Dasa Kadri Gopalnath 3:04

Kadri Gopalnath - December Season 2002: Kutcheri album download

Performer: Kadri Gopalnath

Title: December Season 2002: Kutcheri

Duration: 02:46:41

Style: Carnatic,Indian Classical,Indian Subcontinent Traditions,Indian

Genre: International

Size MP3: 1984 mb

Size FLAC: 1119 mb

Rating: 4.7 / 5

Votes: 822

Other Formats: MP2 ASF MPC MP3 WMA XM

Related Music Albums